Andrew Kroeze & Quentin G Panchura - Stupid Simple Client Acquisition

Andrew Kroeze & Quentin G Panchura - Stupid Simple Client Acquisition
Andrew Kroeze & Quentin G Panchura - Stupid Simple Client Acquisition
WEBRip | English | MP4 + PDF Guides | 1280 x 720 | AVC ~1840 Kbps | 24 fps
AAC | 103 Kbps | 44.1 KHz | 2 channels | 16:25:34 | 4.9 GB
Genre: eLearning Video / Business, Sales, Marketing


Welcome to Stupid Simple Client Acquisition with Andrew Kroeze! Brought to you by Andrew Kroeze - Digital Marketer, Bot Expert & Creator of Agency Acceleration Secrets.
Here's What You'll Get:
Stupid Simple Client Acquisition Premium Home-Study Course - Full, Unrestricted Access to all Course Materials & Updates for LIFE ($2,997 Value)
MODULE #1: Prospecting - Find your dream clients at the snap of your fingers with these free prospecting tools ($997 Value)
MODULE #2: Client Acquisition - TEMPLATES & SCRIPTS GALORE! Cold Email, Cold Call, Cold FB Messenger Video, LinkedIn, BNI, Presentation SlidesR30;YOU GET IT ALL!($1,997 Value)
MODULE #3: Closing The Deal - The Questions, Presentation, And The Proposal To Close Deals With Ease ($2,497 Value)
MODULE #4: Scaling - How to bring in a consistent flow of new clients on autopilot without any extra work ($997 Value)
MODULE #5: Winning Campaign Walk Throughs - The EXACT campaigns that have made my clients $10k+ profit (Ad Copy, Funnel, Bot, & Follow Up) ($1,997 Value)
COURSE BONUS #1: Exclusive, Never Before Seen Interviews With 10k Per Month Marketers on Client Acquisition ($1,497 Value)
COURSE BONUS #2: Weekly group coaching & mentorship calls to keep you accountable & on track ($2,997 Value)
COURSE BONUS #3: Have a question? Get it answered immediately. Exclusive, training & instant answer messenger group chat ($1,997 Value)
Total Value: $17,973


General
Complete name : SSCA - Summary of how I structure my agency.mp4
Format : MPEG-4
Format profile : Base Media
Codec ID : isom (isom/iso2/avc1/mp41)
File size : 181 MiB
Duration : 13 min 0 s
Overall bit rate mode : Variable
Overall bit rate : 1 947 kb/s
Season : 0
Movie name : Project 1
AppleStoreCatalogID : 0
Xtra : WM/Director

Video
ID : 1
Format : AVC
Format/Info : Advanced Video Codec
Format profile : [email protected]
Format settings : 1 Ref Frames
Format settings, CABAC : No
Format settings, RefFrames : 1 frame
Format settings, GOP : M=1, N=12
Codec ID : avc1
Codec ID/Info : Advanced Video Coding
Duration : 13 min 0 s
Bit rate : 1 840 kb/s
Width : 1 280 pixels
Height : 720 pixels
Display aspect ratio : 16:9
Frame rate mode : Constant
Frame rate : 24.000 FPS
Color space : YUV
Chroma subsampling : 4:2:0
Bit depth : 8 bits
Scan type : Progressive
Bits/(Pixel*Frame) : 0.083
Stream size : 171 MiB (94%)
Encoded date : UTC 2018-10-07 19:56:41
Tagged date : UTC 2018-10-07 19:56:41
Menus : 3

Audio
ID : 2
Format : AAC
Format/Info : Advanced Audio Codec
Format profile : LC
Codec ID : mp4a-40-2
Duration : 13 min 0 s
Bit rate mode : Variable
Bit rate : 103 kb/s
Maximum bit rate : 127 kb/s
Channel(s) : 2 channels
Channel positions : Front: L R
Sampling rate : 44.1 kHz
Frame rate : 43.066 FPS (1024 SPF)
Compression mode : Lossy
Stream size : 9.57 MiB (5%)
Encoded date : UTC 2018-10-07 19:56:41
Tagged date : UTC 2018-10-07 19:56:41

Menu
ID : 3
Codec ID : text
Duration : 13 min 0 s
Encoded date : UTC 2018-10-08 16:12:09
Tagged date : UTC 2018-10-08 16:12:09
Menu For : 1
00:00:00.000 : Chapter 1

Andrew Kroeze & Quentin G Panchura - Stupid Simple Client Acquisition

Download link:

Download From Rapidgator.net
https://rapidgator.net/file/c86a1596e9693f479a1c9a144ddb23df/n79pu.Andrew.Kroeze..Quentin.G.Panchura..Stupid.Simple.Client.Acquisition.part1.rar.html
https://rapidgator.net/file/6198135f2a3ed423df3916ac485e053b/n79pu.Andrew.Kroeze..Quentin.G.Panchura..Stupid.Simple.Client.Acquisition.part2.rar.html
https://rapidgator.net/file/224288898192de68f9f94e0835ea9873/n79pu.Andrew.Kroeze..Quentin.G.Panchura..Stupid.Simple.Client.Acquisition.part3.rar.html
https://rapidgator.net/file/3b9946225503d90efeba975f7401ba3e/n79pu.Andrew.Kroeze..Quentin.G.Panchura..Stupid.Simple.Client.Acquisition.part4.rar.html
https://rapidgator.net/file/3b4edfb063a6bba7e387143c3eba7d91/n79pu.Andrew.Kroeze..Quentin.G.Panchura..Stupid.Simple.Client.Acquisition.part5.rar.html
https://rapidgator.net/file/6cbd65a3ebc337d4bdf67ede5ade41fc/n79pu.Andrew.Kroeze..Quentin.G.Panchura..Stupid.Simple.Client.Acquisition.part6.rar.html
https://rapidgator.net/file/b25c4c1ac492f32bd883860f9c36d59c/n79pu.Andrew.Kroeze..Quentin.G.Panchura..Stupid.Simple.Client.Acquisition.part7.rar.html
https://rapidgator.net/file/856cf688b7c859116df4e44aa910b240/n79pu.Andrew.Kroeze..Quentin.G.Panchura..Stupid.Simple.Client.Acquisition.part8.rar.html

Download From Nitroflare.com
http://nitroflare.com/view/859B5924BA809E5/n79pu.Andrew.Kroeze..Quentin.G.Panchura..Stupid.Simple.Client.Acquisition.part1.rar
http://nitroflare.com/view/6D401238D4941DA/n79pu.Andrew.Kroeze..Quentin.G.Panchura..Stupid.Simple.Client.Acquisition.part2.rar
http://nitroflare.com/view/D2F4B001B9848FA/n79pu.Andrew.Kroeze..Quentin.G.Panchura..Stupid.Simple.Client.Acquisition.part3.rar
http://nitroflare.com/view/3496CEFCE0D03E0/n79pu.Andrew.Kroeze..Quentin.G.Panchura..Stupid.Simple.Client.Acquisition.part4.rar
http://nitroflare.com/view/9361EABF057B074/n79pu.Andrew.Kroeze..Quentin.G.Panchura..Stupid.Simple.Client.Acquisition.part5.rar
http://nitroflare.com/view/DC31BA806FA899E/n79pu.Andrew.Kroeze..Quentin.G.Panchura..Stupid.Simple.Client.Acquisition.part6.rar
http://nitroflare.com/view/13B62B321F55DB7/n79pu.Andrew.Kroeze..Quentin.G.Panchura..Stupid.Simple.Client.Acquisition.part7.rar
http://nitroflare.com/view/F3754658A40A67C/n79pu.Andrew.Kroeze..Quentin.G.Panchura..Stupid.Simple.Client.Acquisition.part8.rar

Links are Interchangeable - No Password - Single Extraction

Related News

Comments 0

Edited byDown2torrent.bid